请选择 进入手机版 | 继续访问电脑版

琼森音响官网 JOSAUDIO

 找回密码
 立即注册
搜索
热搜: 活动 交友 discuz
查看: 7221|回复: 0

蔡琴绝版分享 - 淘宝卖11998《机遇》咖啡色人头版【WAV】 百度

[复制链接]

112

主题

144

帖子

1万

积分

超级版主

Rank: 8Rank: 8

积分
11387
发表于 2016-5-24 21:48:23 | 显示全部楼层 |阅读模式
本帖最后由 Josaudio 于 2016-8-6 00:17 编辑


专辑名称:机遇
版本:咖啡色人头版/首版
专辑艺人:蔡琴
唱片公司:℗ 2000 奇观工作室
发行时间:2000年03月
资源类型:整轨WAV+CUE
内圈码:果陀劇場-淡水小鎮 駿麟實業·恩基科技
IFPI Mastering SID Code:IFPI LD68
IFPI Mould SID Code:IFPI 5N21



专辑简介:
这张专辑大概有咖啡版、黃色版、绿色初版、绿色新版这三个版本,还有XRCD版、K2版、SACD版及LP版。
  当年,在蔡琴新专辑咖啡版《机遇》推出时,是淡淡的咖啡色封面,唱片风格也跟以前有一些不同,内容就是台湾舞台剧《淡水小镇》的原声带。咖啡版《机遇》出版的季节,是一个缺少媒体宣传的季节,承受着冷如薄霜的洗礼,就如一般唱片在大小音像店寂寞地等待着伯乐们的认可,但似乎没有多少人知道,也没有多少人去购买便草草收场,不见踪迹。稍后,市场上出现了绿色封面版同名唱片蔡琴《机遇》,一发不可收拾,直至再次出版绿色新版。
  咖啡版神秘消失的起源于“中华民国”四个汉字。在第5轨道《静夜星空》里,咖啡版中有一段蔡琴磁力般嗓音的独白:“ 六号、清水街、淡水镇、台北省、台湾城、中华民国、亚洲”。简单而复杂的“中华民国”四个小小的汉字,便在中国大陆葬送了咖啡版《机遇》美好的前程。没有多少人能够有足够的时间领悟到这个版本的升值价值,等到你醒悟时,一切都是过眼烟云,留给你的,是无奈选择已经删除了“中华民国”独白的绿色封面版的残缺的《机遇》。

关于“绿色初版”和“绿色再版”
  至于第二个版本,在于删除之后的“绿色初版”和“绿色再版”而已,仔细观察就会发现,区别仅仅在于唱片的封底,绿色初版左三分之一处有条淡黄色直线,也无歌名、发行商地址等资料,“绿色再版”的已经印刷,但曲目一样。当然,你再也听不到“中华民国”的那段独白了。从此以后,在中国大陆公开出售的所有蔡琴《机遇》,都是删除“中华民国”的版本,那句独白成了“ 六号、清水街、淡水镇、台北省、台湾城、......、亚洲”。


蔡琴機遇 咖啡色版(俗称《台湾版机遇》

“传说”中的蔡琴《机遇》「第一版」咖啡色版(俗称《台湾版机遇》您见过、听过吗?相信“传说”和讨论虽多,见过、听过的却很少(有关相片见附图封面封底及CD),今天就让我和大家分享《机遇》啡色版的卢山真面目。

以下就是它的“传奇”故事,故事内容主要依据来自内地某发行人士Mr W(名符其实的“版主”)的“正版”“传说”内容,与其让不同的“传说”版本在市面流传,不如我也说说我所知的“传奇”传说故事:

当年在蔡琴专辑啡色版《机遇》初版推出时,是淡淡的咖啡色封面,唱片风格也跟以前有一些不同,内容就是台湾舞台剧《淡水小镇》的原声带。

啡色版又叫“台湾版”,也即第一版原版。啡色版神秘消失的催化剂起源于在第5首《静夜星空》里,啡色版中有一段蔡琴磁力般嗓音的独白:“ 六号、清水街、淡水镇、台北市、台湾省、中华民国、亚洲……”。

《机遇》算是国台语专辑之中,有史以来发烧友讨论最多,也最吹毛求疵、挑尽毛病的一张专辑。一张国语CD能引起那么多话题及那么多人喜欢实在不简单。原因就如下述:

关键就是“中华民国”这四个字。( “台湾版”的名字也原因在此,但据发行商Mr W表示,台湾并没有销售过“台湾版(咖啡/啡色版) ”,但当年有人真的往台湾寻找上述“台湾版”!因为“台湾版”《机遇》,Mr Wat可能是唯一的供货商,当年初时的友情售价是人民币500元。 (亦有一说首版是淡水小镇公演场地才有贩卖)

啡色版《机遇》出版时,为免“中华民国”四个字可能影响蔡琴的唱片在中国的庞大商机,故此没有媒体宣传,没有多少人知道,也没有公开销售便草草回收,不见踪迹。据悉后来版主找黎小田将啡色初版覆制3次,过程中将“中华民国”4个字删去,补入了一段钢琴。

但覆制完成之后,如果将绿色版和啡色版比较……(为存忠厚,不说了!)为免影响其它版本的销路,当年代理封杀任何咖啡版《机遇》评论出街!(Mr W似乎不介意?)

于是稍后,市场上出现了公开销售的绿色封面版同名唱片“蔡琴《机遇》”,好评如潮(证明“原版”录音质素极高),销售量一发不可收拾,直至再次出版第二版绿色新版,音质较次但仍然热销。由于互联网的流行,绿色版和啡色版的差别比较很快曝光,继而引发无数讨论……

xrcd2版(号称绿色版听不清青蛙叫的必买):也分“台湾版”及“香港版”。 最新的就是LPCD版。

《机遇》现有LP(180克)、XRCD、SACD、K2、LPCD版和普通版6种,连同曾发行过的版本,已达8种版本,一张专辑能有那么多种版本发行,也算空前了。

啡色版Vs xrcd2版:

1. 啡色版:音色甜美醉人,音乐感有过之而无不及,令人赞叹。最深印象是第6首,除了青蛙叫听得更清以外,其歌声余韵好像横8字一般,来回环绕不散。是我的选择。考发烧友音响组合分析力方面:请试第9首。(香港HiFi女强人Sherry Chung的选择。)

2. xrcd2版:音色听来带有新录音的时代感,HiFi效果全面“胜出”。就如XRCD版《老歌》一样,这版本开始的钢琴声一响,也是音像鲜明但略带少许前倾,定位较为明显。整体感觉是质惑更强,高、中音清晰度较高,低音变得较为结实。符合“一般”发烧友的要求。

顺带一提有关芸芸蔡琴有关唱片的行内人私人意见,引述Mr W当年的意见,啡色面印刷的《机遇》「第一版」堪称第一,只印了500张,二手价比三洋版《老歌》更高、更难找,其它蔡琴有关唱片,二手价无出其右。

专辑曲目:
01. 机遇I
02. 苏醒
03. 六月茉莉
04. 流转的时光
05. 静夜星空
06. 月光小夜曲
07. 关于爱情
08. 白发吟
09. 偶然
10. 六月茉莉(回到尘世)
11. 尘封的记忆
12. 机遇 II








  1. Exact Audio Copy V1.0 beta 4 from 7. December 2014

  2. EAC extraction logfile from 18. August 2015, 15:15

  3. 蔡琴 / 機遇

  4. Used drive  : hp      BD ROM BC-5501H   Adapter: 1  ID: 0

  5. Read mode               : Secure
  6. Utilize accurate stream : Yes
  7. Defeat audio cache      : No
  8. Make use of C2 pointers : No

  9. Read offset correction                      : 48
  10. Overread into Lead-In and Lead-Out          : No
  11. Fill up missing offset samples with silence : Yes
  12. Delete leading and trailing silent blocks   : No
  13. Null samples used in CRC calculations       : Yes
  14. Used interface                              : Native Win32 interface for Win NT & 2000

  15. Used output format : Internal WAV Routines
  16. Sample format      : 44.100 Hz; 16 Bit; Stereo


  17. TOC of the extracted CD

  18.      Track |   Start  |  Length  | Start sector | End sector
  19.     ---------------------------------------------------------
  20.         1  |  0:00.00 |  4:09.67 |         0    |    18741   
  21.         2  |  4:09.67 |  3:27.70 |     18742    |    34336   
  22.         3  |  7:37.62 |  3:13.20 |     34337    |    48831   
  23.         4  | 10:51.07 |  3:00.58 |     48832    |    62389   
  24.         5  | 13:51.65 |  4:30.02 |     62390    |    82641   
  25.         6  | 18:21.67 |  3:59.15 |     82642    |   100581   
  26.         7  | 22:21.07 |  5:31.23 |    100582    |   125429   
  27.         8  | 27:52.30 |  2:46.57 |    125430    |   137936   
  28.         9  | 30:39.12 |  4:23.55 |    137937    |   157716   
  29.        10  | 35:02.67 |  2:31.08 |    157717    |   169049   
  30.        11  | 37:34.00 |  3:23.55 |    169050    |   184329   
  31.        12  | 40:57.55 |  1:53.60 |    184330    |   192864   


  32. Range status and errors

  33. Selected range

  34.      Filename C:\Users\Davis\Desktop\蔡琴 - 機遇.wav

  35.      Peak level 99.9 %
  36.      Extraction speed 5.6 X
  37.      Range quality 100.0 %
  38.      Copy CRC 2E80AC33
  39.      Copy OK

  40. No errors occurred


  41. AccurateRip summary

  42. Track  1  cannot be verified as accurate (confidence 6)  [AA0CB809], AccurateRip returned [C022A776]  (AR v2)
  43. Track  2  cannot be verified as accurate (confidence 6)  [23785CB0], AccurateRip returned [A8BCFE22]  (AR v2)
  44. Track  3  cannot be verified as accurate (confidence 7)  [FF949F08], AccurateRip returned [B9DFCD5A]  (AR v2)
  45. Track  4  cannot be verified as accurate (confidence 6)  [D1D40B79], AccurateRip returned [963A8476]  (AR v2)
  46. Track  5  cannot be verified as accurate (confidence 6)  [6C48EE77], AccurateRip returned [F7D9F89D]  (AR v2)
  47. Track  6  cannot be verified as accurate (confidence 6)  [A045A973], AccurateRip returned [8E7C4338]  (AR v2)
  48. Track  7  cannot be verified as accurate (confidence 6)  [5C3C1CE1], AccurateRip returned [490029BC]  (AR v2)
  49. Track  8  cannot be verified as accurate (confidence 6)  [B7F10B49], AccurateRip returned [A1742378]  (AR v2)
  50. Track  9  cannot be verified as accurate (confidence 6)  [F197C124], AccurateRip returned [B089CB3C]  (AR v2)
  51. Track 10  cannot be verified as accurate (confidence 6)  [C658E214], AccurateRip returned [25873559]  (AR v2)
  52. Track 11  cannot be verified as accurate (confidence 6)  [CEF9763F], AccurateRip returned [DD871EFC]  (AR v2)
  53. Track 12  cannot be verified as accurate (confidence 6)  [53C677AE], AccurateRip returned [2AC135D8]  (AR v2)

  54. No tracks could be verified as accurate
  55. You may have a different pressing from the one(s) in the database

  56. End of status report

  57. ---- CUETools DB Plugin V2.1.4

  58. [CTDB TOCID: vyZlLRYUoO6HfSQbLnkLa7pv3TA-] found
  59. Submit result: vyZlLRYUoO6HfSQbLnkLa7pv3TA- has been confirmed
  60. Track | CTDB Status
  61.   1   | ( 5/28) Accurately ripped
  62.   2   | (26/28) Accurately ripped
  63.   3   | (26/28) Accurately ripped
  64.   4   | (26/28) Accurately ripped
  65.   5   | (26/28) Accurately ripped
  66.   6   | (26/28) Accurately ripped
  67.   7   | (26/28) Accurately ripped
  68.   8   | (26/28) Accurately ripped
  69.   9   | (26/28) Accurately ripped
  70. 10   | (26/28) Accurately ripped
  71. 11   | (26/28) Accurately ripped
  72. 12   | (26/28) Accurately ripped


  73. ==== Log checksum 9238E502B8C2FB945FE73E862CFC7FD855567D57F6736E14EFB520654B0D7414 ====
复制代码

免责声明:本专辑来自购买正版CD原抓分享试听,版权归所属公司,若试听喜欢请购买正版CD!

游客,本帖隐藏的内容需要积分高于 200 才可浏览,您当前积分为 0


回复

使用道具 举报

您需要登录后才可以回帖 登录 | 立即注册

本版积分规则

QQ|手机版|琼森音响官网 JOSAUDIO ( 粤ICP备16044868号 )

GMT+8, 2020-7-5 23:37 , Processed in 0.088451 second(s), 19 queries .

Powered by Discuz! X3.4

Copyright © 2001-2020, Tencent Cloud.

快速回复 返回顶部 返回列表